Ubuntu-Austria Foren-Übersicht
Portal  •  Forum  •  Profil  •  Suchen   •  Registrieren  •  Einloggen, um private Nachrichten zu lesen  •  Login   

 Videodownloadhelper avcov Problem

Neues Thema eröffnenNeue Antwort erstellen
Autor Nachricht
Gast











BeitragVerfasst am: 19.12.2015, 22:39    Videodownloadhelper avcov Problem Antworten mit ZitatNach oben

Hallo!

Ich benutze Ubuntu 12.04 classic gnome. Ich benutze Firefox 42.0 als Browser und ich habe Videodownloadhelper als Addon. Wenn ich versuche eine Datei in Mp3 zu konvertieren erscheint bei mir folgender Fehler:

Zitat:
avconv version 0.8.17-4:0.8.17-0ubuntu0.12.04.1, Copyright (c) 2000-2014 the Libav developers
built on Mar 16 2015 13:28:23 with gcc 4.6.3
Input #0, mov,mp4,m4a,3gp,3g2,mj2, from '/tmp/media.mp3':
Metadata:
major_brand : mp42
minor_version : 0
compatible_brands: isommp42
creation_time : 2014-08-16 06:08:07
Duration: 00:03:11.40, start: 0.000000, bitrate: 615 kb/s
Stream #0.0(und): Video: h264 (Constrained Baseline), yuv420p, 480x360 [PAR 1:1 DAR 4:3], 516 kb/s, 25 fps, 25 tbr, 25 tbn, 50 tbc
Stream #0.1(und): Audio: aac, 44100 Hz, stereo, s16, 95 kb/s
Metadata:
creation_time : 2014-08-16 06:08:07
Unknown encoder 'mp3'


Hat jemand ein Tipp. Google hilft hiemich nicht weiter, weil ich wohl das "falsche" Suche...

Danke

PP


Desktop: anderer

Version: 16.04

Hardware: Notebook

Architektur: 64Bit
Online    
Gast











BeitragVerfasst am: 08.01.2016, 23:21    (Kein Titel) Antworten mit ZitatNach oben

Ich hab jetzt nicht diese Ubuntu Version. Aber ich vermute mal es fehlt dir das Gstreamer Pugin für mp3/lame.

Desktop: anderer

Version: 16.04

Hardware: Notebook

Architektur: 64Bit
Online    
Beiträge der letzten Zeit anzeigen:      
Neues Thema eröffnenNeue Antwort erstellen


 Gehe zu:   



Berechtigungen anzeigen


Forensicherheit

1008050174356 Angriffe abgewehrt

Powered by Orion based on phpBB © 2001, 2002 phpBB Group
CBACK Orion Style based on FI Theme
Alle Zeiten sind GMT + 2 Stunden



[ Page generation time: 0.161s (PHP: 81% - SQL: 19%) | SQL queries: 30 | GZIP enabled | Debug off ]